<?xml version="1.0" standalone="no"?>
<!DOCTYPE svg PUBLIC "-//W3C//DTD SVG 1.1//EN" "http://www.w3.org/Graphics/SVG/1.1/DTD/svg11.dtd" >
<svg xmlns="http://www.w3.org/2000/svg">
<metadata>Generated by IcoMoon</metadata>
<defs>
<font id="icomoon" horiz-adv-x="1024">
<font-face units-per-em="1024" ascent="960" descent="-64" />
<missing-glyph horiz-adv-x="1024" />
<glyph unicode="&#x20;" horiz-adv-x="512" d="" />
<glyph unicode="&#xe900;" horiz-adv-x="1382" d="M85.361 959.884h1195.069c47.119 0 85.361-38.24 85.361-85.403v-810.937c0-47.119-38.241-85.361-85.361-85.361h-1195.069c-47.163-0.005-85.361 38.241-85.361 85.356v810.942c0 47.162 38.24 85.403 85.361 85.403z" />
<glyph unicode="&#xe901;" horiz-adv-x="1382" d="M220.236 618.438l-134.873-298.468h161.462l20.017 47.585h45.753l20.017-47.585h177.724v36.321l15.837-36.321h91.935l15.836 37.089v-37.089h369.618l44.943 46.351 42.081-46.351 189.844-0.384-135.301 148.784 135.301 150.068h-186.9l-43.75-45.496-40.755 45.496h-402.099l-34.529-77.038-35.333 77.038h-161.127v-35.085l-17.924 35.085c0 0-137.775 0-137.775 0zM251.478 576.054h78.704l89.461-202.392v202.392h86.217l69.101-145.114 63.683 145.114h85.786v-214.173h-52.198l-0.43 167.825-76.099-167.825h-46.694l-76.529 167.825v-167.825h-107.385l-20.358 48.015h-109.988l-20.316-47.974h-57.535l94.582 214.132zM772.183 576.054h212.255l64.916-70.124 67.011 70.124h64.916l-98.632-107.643 98.632-106.402h-67.86l-64.916 70.938-67.354-70.938h-208.968v214.045zM289.764 539.817l-36.236-85.534h72.431l-36.195 85.534zM824.602 531.71v-39.097h115.789v-43.577h-115.789v-42.682h129.874l60.349 62.867-57.784 62.526-132.439-0.037z" />
<glyph unicode="&#xe902;" glyph-name="apple-pay" horiz-adv-x="2371" d="M433.521 834.484c-27.79-32.884-72.253-58.821-116.716-55.115-5.558 44.463 16.21 91.705 41.684 120.884 27.789 33.81 76.421 57.895 115.79 59.747 4.631-46.316-13.432-91.705-40.758-125.516zM473.815 770.569c-64.379 3.705-119.494-36.59-150.063-36.59-31.032 0-77.811 34.737-128.758 33.81-66.231-0.926-127.831-38.442-161.642-98.189-69.474-119.495-18.063-296.422 49.095-393.686 32.884-48.166 72.253-100.966 124.127-99.112 49.095 1.849 68.547 31.954 127.831 31.954 59.748 0 76.885-31.954 128.758-31.027 53.726 0.922 87.539 48.166 120.42 96.337 37.516 54.649 52.801 107.913 53.728 110.694-0.927 0.927-103.748 40.293-104.674 158.861-0.926 99.116 81.052 146.358 84.76 149.137-46.317 68.547-118.571 75.958-143.582 77.811zM845.732 904.884v-722.062h112.085v246.863h155.158c141.727 0 241.303 97.263 241.303 238.063s-97.727 237.137-237.6 237.137h-270.945zM957.817 810.4h129.218c97.264 0 152.845-51.874 152.845-143.116s-55.582-143.579-153.309-143.579h-128.755v286.695zM1558.991 177.265c70.403 0 135.707 35.662 165.349 92.165h2.317v-86.609h103.747v359.41c0 104.21-83.37 171.368-211.666 171.368-119.032 0-207.031-68.084-210.27-161.642h100.966c8.338 44.463 49.556 73.642 106.065 73.642 68.549 0 106.986-31.958 106.986-90.779v-39.832l-139.873-8.336c-130.145-7.874-200.548-61.137-200.548-153.767 0-93.561 72.72-155.621 176.926-155.621zM1589.097 262.947c-59.748 0-97.722 28.715-97.722 72.715 0 45.39 36.589 71.793 106.523 75.959l124.588 7.874v-40.761c0-67.616-57.43-115.787-133.389-115.787zM1968.888-13.56c109.304 0 160.714 41.688 205.641 168.13l196.845 552.083h-113.939l-131.999-426.567h-2.317l-131.999 426.567h-117.178l189.893-525.685-10.186-31.96c-17.139-54.186-44.927-75.027-94.483-75.027-8.801 0-25.94 0.922-32.887 1.849v-86.609c6.484-1.854 34.272-2.781 42.609-2.781z" />
<glyph unicode="&#xe903;" glyph-name="arrow_back" d="M853.333 490.667h-519.253l238.507 238.507-60.587 60.16-341.333-341.333 341.333-341.333 60.16 60.16-238.080 238.507h519.253v85.333z" />
<glyph unicode="&#xe904;" glyph-name="arrow_drop_down" d="M298.667 533.333l213.333-213.333 213.333 213.333h-426.667z" />
<glyph unicode="&#xe905;" glyph-name="arrow_drop_up" d="M298.667 362.667l213.333 213.333 213.333-213.333h-426.667z" />
<glyph unicode="&#xe906;" glyph-name="arrow_forward" d="M512 789.333l-60.16-60.16 238.080-238.507h-519.253v-85.333h519.253l-238.080-238.507 60.16-60.16 341.333 341.333-341.333 341.333z" />
<glyph unicode="&#xe907;" glyph-name="autorenew" d="M512 704v-128l170.667 170.667-170.667 170.667v-128c-188.587 0-341.333-152.747-341.333-341.333 0-66.987 19.627-129.28 52.907-181.76l62.293 62.293c-19.2 35.413-29.867 76.373-29.867 119.467 0 141.227 114.773 256 256 256zM800.427 629.76l-62.293-62.293c18.773-35.84 29.867-76.373 29.867-119.467 0-141.227-114.773-256-256-256v128l-170.667-170.667 170.667-170.667v128c188.587 0 341.333 152.747 341.333 341.333 0 66.987-19.627 129.28-52.907 181.76v0z" />
<glyph unicode="&#xe908;" glyph-name="calendar" d="M298.667 490.667h85.333v-85.333h-85.333v85.333zM896 704v-597.333c0-46.933-38.4-85.333-85.333-85.333h-597.333c-47.36 0-85.333 38.4-85.333 85.333l0.427 597.333c0 46.933 37.547 85.333 84.907 85.333h42.667v85.333h85.333v-85.333h341.333v85.333h85.333v-85.333h42.667c46.933 0 85.333-38.4 85.333-85.333zM213.333 618.667h597.333v85.333h-597.333v-85.333zM810.667 106.667v426.667h-597.333v-426.667h597.333zM640 405.333h85.333v85.333h-85.333v-85.333zM469.333 405.333h85.333v85.333h-85.333v-85.333z" />
<glyph unicode="&#xe909;" glyph-name="credit_card" d="M853.333 789.333h-682.667c-47.36 0-84.907-37.973-84.907-85.333l-0.427-512c0-47.36 37.973-85.333 85.333-85.333h682.667c47.36 0 85.333 37.973 85.333 85.333v512c0 47.36-37.973 85.333-85.333 85.333zM853.333 192h-682.667v256h682.667v-256zM853.333 618.667h-682.667v85.333h682.667v-85.333z" />
<glyph unicode="&#xe90a;" glyph-name="delete" d="M682.667 576v-426.667h-341.333v426.667h341.333zM618.667 832h-213.333l-42.667-42.667h-149.333v-85.333h597.333v85.333h-149.333l-42.667 42.667zM768 661.333h-512v-512c0-46.933 38.4-85.333 85.333-85.333h341.333c46.933 0 85.333 38.4 85.333 85.333v512z" />
<glyph unicode="&#xe90b;" glyph-name="edit" d="M128 224v-160h160l471.893 471.893-160 160-471.893-471.893zM252.587 149.333h-39.253v39.253l386.56 386.56 39.253-39.253-386.56-386.56zM883.627 719.787l-99.84 99.84c-8.533 8.533-19.2 12.373-30.293 12.373s-21.76-4.267-29.867-12.373l-78.080-78.080 160-160 78.080 78.080c16.64 16.64 16.64 43.52 0 60.16z" />
<glyph unicode="&#xe90c;" glyph-name="error" d="M469.333 320h85.333v-85.333h-85.333v85.333zM469.333 661.333h85.333v-256h-85.333v256zM511.573 874.667c-235.52 0-426.24-191.147-426.24-426.667s190.72-426.667 426.24-426.667c235.947 0 427.093 191.147 427.093 426.667s-191.147 426.667-427.093 426.667zM512 106.667c-188.587 0-341.333 152.747-341.333 341.333s152.747 341.333 341.333 341.333c188.587 0 341.333-152.747 341.333-341.333s-152.747-341.333-341.333-341.333z" />
<glyph unicode="&#xe90d;" glyph-name="euro_symbol" d="M640 170.667c-107.093 0-199.68 60.587-245.76 149.333h245.76v85.333h-273.92c-2.133 14.080-3.413 28.16-3.413 42.667s1.28 28.587 3.413 42.667h273.92v85.333h-245.76c46.080 88.747 139.093 149.333 245.76 149.333 68.693 0 131.84-25.173 180.48-66.987l75.52 75.52c-67.84 61.013-157.867 98.133-256 98.133-167.253 0-308.907-107.093-361.813-256h-150.187v-85.333h130.56c-1.707-14.080-2.56-28.16-2.56-42.667s0.853-28.587 2.56-42.667h-130.56v-85.333h150.187c52.907-148.907 194.56-256 361.813-256 98.56 0 188.16 37.12 256 98.133l-75.947 75.52c-48.213-41.813-110.933-66.987-180.053-66.987z" />
<glyph unicode="&#xe90e;" glyph-name="file" d="M341.333 277.333h341.333v-85.333h-341.333v85.333zM341.333 448h341.333v-85.333h-341.333v85.333zM597.333 874.667h-341.333c-46.933 0-85.333-38.4-85.333-85.333v-682.667c0-46.933 37.973-85.333 84.907-85.333h512.427c46.933 0 85.333 38.4 85.333 85.333v512l-256 256zM768 106.667h-512v682.667h298.667v-213.333h213.333v-469.333z" />
<glyph unicode="&#xe914;" horiz-adv-x="2503" d="M1183.892 470.856v-293.499h-92.439v724.81h245.157c29.264 0.616 58.362-4.613 85.606-15.382 27.25-10.77 52.11-26.867 73.148-47.366 21.248-19.253 38.161-42.866 49.601-69.25s17.135-54.929 16.714-83.716c0.609-28.941-5.006-57.672-16.452-84.224s-28.456-50.298-49.863-69.609c-42.871-41.177-95.79-61.745-158.754-61.707l-152.718-0.058zM1183.892 812.932v-253.015h155.017c16.993-0.507 33.906 2.564 49.658 9.017 15.747 6.453 29.986 16.146 41.802 28.458 11.759 11.513 21.1 25.282 27.483 40.495s9.671 31.56 9.671 48.075c0 16.515-3.288 32.862-9.671 48.075s-15.724 28.983-27.483 40.495c-11.668 12.572-25.856 22.502-41.626 29.133s-32.757 9.809-49.835 9.325l-155.017-0.057z" />
<glyph unicode="&#xe915;" horiz-adv-x="2503" d="M1774.694 689.462c68.324 0 122.254-18.391 161.798-55.172 39.538-36.781 59.29-87.211 59.25-151.288v-305.64h-88.417v68.818h-4.022c-38.275-56.678-89.185-85.015-152.724-85.015-54.232 0-99.612 16.196-136.129 48.577-17.522 14.865-31.534 33.479-41.006 54.494-9.478 21.009-14.182 43.884-13.767 66.958 0 51.314 19.251 92.124 57.759 122.427s89.913 45.495 154.214 45.572c54.892 0 100.096-10.121 135.617-30.362v21.282c0.102 15.73-3.271 31.285-9.87 45.539-6.605 14.254-16.276 26.849-28.314 36.872-24.445 22.215-56.297 34.335-89.219 33.947-51.638 0-92.496-21.937-122.584-65.813l-81.414 51.644c44.783 64.771 111.058 97.158 198.827 97.158zM1655.103 329.17c-0.063-11.85 2.685-23.546 8.021-34.105 5.33-10.564 13.096-19.689 22.636-26.618 20.446-16.202 45.818-24.781 71.828-24.292 39.009 0.068 76.396 15.707 103.976 43.492 30.623 29.030 45.932 63.095 45.932 102.19-28.82 23.13-69.012 34.697-120.57 34.697-37.547 0-68.858-9.118-93.929-27.354-25.321-18.504-37.894-41.004-37.894-68.009z" />
<glyph unicode="&#xe916;" horiz-adv-x="2503" d="M2503.282 673.271l-308.662-714.515h-95.425l114.546 250.010-202.962 464.506h100.477l146.694-356.246h2.008l142.677 356.246h100.648z" />
<glyph unicode="&#xe917;" horiz-adv-x="2503" d="M810.354 534.126c0.034 28.375-2.344 56.701-7.117 84.666h-389.848v-160.368h223.289c-4.574-25.613-14.245-50.029-28.433-71.778-14.188-21.743-32.603-40.374-54.132-54.756v-104.101h133.259c78.029 72.465 122.982 179.627 122.982 306.337z" />
<glyph unicode="&#xe918;" horiz-adv-x="2503" d="M413.384 127.221c111.557 0 205.488 36.892 273.982 100.511l-133.258 104.095c-37.090-25.327-84.859-39.788-140.724-39.788-107.825 0-199.344 73.216-232.070 171.878h-137.279v-107.28c34.407-68.961 87.166-126.936 152.387-167.447s140.337-61.969 216.962-61.969z" />
<glyph unicode="&#xe919;" horiz-adv-x="2503" d="M181.318 463.917c-17.302 51.699-17.302 107.686 0 159.384v107.278h-137.279c-28.944-58.014-44.018-122.043-44.018-186.97s15.074-128.956 44.018-186.973l137.279 107.28z" />
<glyph unicode="&#xe91a;" horiz-adv-x="2503" d="M413.384 795.179c58.953 0.971 115.917-21.466 158.577-62.458l117.988 118.845c-74.815 70.782-173.929 109.642-276.565 108.435-76.625-0.004-151.741-21.459-216.962-61.971s-117.98-98.485-152.387-167.448l137.279-107.278c32.726 98.661 124.245 171.876 232.070 171.876z" />
<glyph unicode="&#xe91b;" glyph-name="help" d="M469.333 192h85.333v85.333h-85.333v-85.333zM512 874.667c-235.52 0-426.667-191.147-426.667-426.667s191.147-426.667 426.667-426.667c235.52 0 426.667 191.147 426.667 426.667s-191.147 426.667-426.667 426.667zM512 106.667c-188.16 0-341.333 153.173-341.333 341.333s153.173 341.333 341.333 341.333c188.16 0 341.333-153.173 341.333-341.333s-153.173-341.333-341.333-341.333zM512 704c-94.293 0-170.667-76.373-170.667-170.667h85.333c0 46.933 38.4 85.333 85.333 85.333s85.333-38.4 85.333-85.333c0-85.333-128-74.667-128-213.333h85.333c0 96 128 106.667 128 213.333 0 94.293-76.373 170.667-170.667 170.667z" />
<glyph unicode="&#xe91c;" glyph-name="icon-add" d="M554.667 661.333h-85.333v-170.667h-170.667v-85.333h170.667v-170.667h85.333v170.667h170.667v85.333h-170.667v170.667zM512 874.667c-235.52 0-426.667-191.147-426.667-426.667s191.147-426.667 426.667-426.667c235.52 0 426.667 191.147 426.667 426.667s-191.147 426.667-426.667 426.667zM512 106.667c-188.16 0-341.333 153.173-341.333 341.333s153.173 341.333 341.333 341.333c188.16 0 341.333-153.173 341.333-341.333s-153.173-341.333-341.333-341.333z" />
<glyph unicode="&#xe91d;" glyph-name="icon-info" d="M469.333 661.333h85.333v-85.333h-85.333v85.333zM469.333 490.667h85.333v-256h-85.333v256zM512 874.667c-235.52 0-426.667-191.147-426.667-426.667s191.147-426.667 426.667-426.667c235.52 0 426.667 191.147 426.667 426.667s-191.147 426.667-426.667 426.667zM512 106.667c-188.16 0-341.333 153.173-341.333 341.333s153.173 341.333 341.333 341.333c188.16 0 341.333-153.173 341.333-341.333s-153.173-341.333-341.333-341.333z" />
<glyph unicode="&#xe91e;" glyph-name="icon-remove" d="M298.667 490.667v-85.333h426.667v85.333h-426.667zM512 874.667c-235.52 0-426.667-191.147-426.667-426.667s191.147-426.667 426.667-426.667c235.52 0 426.667 191.147 426.667 426.667s-191.147 426.667-426.667 426.667zM512 106.667c-188.16 0-341.333 153.173-341.333 341.333s153.173 341.333 341.333 341.333c188.16 0 341.333-153.173 341.333-341.333s-153.173-341.333-341.333-341.333z" />
<glyph unicode="&#xe91f;" glyph-name="icon-warning" d="M512 704.427l321.28-555.093h-642.56l321.28 555.093zM512 874.667l-469.333-810.667h938.667l-469.333 810.667zM554.667 277.333h-85.333v-85.333h85.333v85.333zM554.667 533.333h-85.333v-170.667h85.333v170.667z" />
<glyph unicode="&#xe920;" horiz-adv-x="1638" d="M819.21 104.376c98.826 88.422 161.239 218.46 161.239 364.098s-62.413 273.070-161.239 364.093c-85.821 78.020-202.854 127.433-327.685 127.433-270.469 0-491.526-221.057-491.526-491.526 0-270.474 221.057-488.924 491.526-488.924 124.83-2.606 241.863 46.807 327.685 124.826z" />
<glyph unicode="&#xe921;" horiz-adv-x="1638" d="M0 468.474c0-270.468 221.057-488.923 491.526-488.923 127.431 0 241.863 46.812 327.685 127.427 98.826 88.422 161.239 218.46 161.239 364.098s-62.413 270.469-161.239 361.492c-85.821 78.020-202.854 127.433-327.685 127.433z" />
<glyph unicode="&#xe922;" horiz-adv-x="1638" d="M819.215 832.567c-85.821 78.020-202.854 127.433-327.663 127.433-7.802 0-15.604 0-23.407 0-153.439-111.828-252.264-291.275-252.264-491.526s98.826-379.698 249.664-488.923c7.802 0 15.604 0 23.406 0 127.41 0 241.842 46.812 327.663 127.427 98.826 88.422 161.239 218.46 161.239 364.098s-59.812 270.469-158.638 361.492z" />
<glyph unicode="&#xe923;" horiz-adv-x="1638" d="M1149.496 960c-127.432 0-241.859-46.812-330.281-127.433-18.207-15.604-33.812-33.808-49.413-52.013h98.826c13-15.604 26.004-33.809 36.408-52.014h-174.244c-10.404-18.205-20.808-33.809-28.611-52.013h231.46c7.803-18.205 15.606-33.809 20.808-52.014h-270.469c-5.202-18.205-10.404-33.809-15.606-52.014h301.676c7.803-33.808 10.404-67.617 10.404-104.027 0-54.614-7.803-106.628-26.004-156.041h-270.469c5.202-18.202 13-33.807 20.803-52.014h231.46c-7.803-18.202-18.207-36.408-28.605-52.009h-174.244c10.399-18.207 23.404-36.413 36.408-52.014h98.826c-15.606-18.207-31.212-36.419-49.413-52.014 88.422-78.019 202.849-127.437 330.281-127.437 270.469 0 488.929 218.46 488.929 488.929 0 273.070-218.46 494.127-488.929 494.127z" />
<glyph unicode="&#xe924;" horiz-adv-x="1638" d="M1149.496 960c-127.432 0-241.859-46.812-330.281-127.433-18.207-15.604-33.812-33.808-49.413-52.013h98.826c13-15.604 26.004-33.809 36.408-52.014h-174.244c-10.404-18.205-20.808-33.809-28.611-52.013h231.46c7.803-18.205 15.606-33.809 20.808-52.014h-270.469c-5.202-18.205-10.404-33.809-15.606-52.014h301.676c7.803-33.808 10.404-67.617 10.404-104.027 0-54.614-7.803-106.628-26.004-156.041h-270.469c5.202-18.202 13-33.807 20.803-52.014h231.46c-7.803-18.202-18.207-36.408-28.605-52.009h-174.244c10.399-18.207 23.404-36.413 36.408-52.014h98.826c-15.606-18.207-31.212-36.419-49.413-52.014 88.422-78.019 202.849-127.437 330.281-127.437 270.469 0 488.929 218.46 488.929 488.929z" />
<glyph unicode="&#xe925;" horiz-adv-x="1638" d="M819.21 104.381c98.826 88.422 161.244 218.455 161.244 364.094 0 145.637-62.418 273.070-161.244 364.093v-728.187z" />
<glyph unicode="&#xe926;" horiz-adv-x="1638" d="M1469.384 361.851c0 7.803 7.798 15.606 15.601 15.606s15.606-7.803 15.606-15.606c0-7.803-7.803-15.601-15.606-15.601s-15.601 7.798-15.601 15.601zM1484.984 348.851c7.803 0 10.404 5.197 10.404 13s-5.202 10.404-10.404 10.404c-7.803 0-13.005-5.202-13.005-10.404s7.803-13 13.005-13zM1484.984 356.649h-2.601v13.005h5.202c2.601 0 2.601 0 2.601 0l2.601-2.601c0-2.601 0-2.601-2.601-2.601l2.601-5.202h-2.601l-2.601 5.202h-2.601v-7.803zM1484.984 364.452c2.601 0 2.601 0 2.601 0s0 0 0 2.601h-2.601v-2.601z" />
<glyph unicode="&#xe927;" horiz-adv-x="1638" d="M819.215 832.569c-18.207-15.604-33.812-33.809-49.413-52.014h98.826c13-15.604 26.004-33.808 36.408-52.013h-174.244c-10.404-18.205-20.808-33.809-28.611-52.014h231.46c7.803-18.205 15.606-33.808 20.808-52.013h-270.469c-5.202-18.205-10.404-33.809-15.606-52.014h301.676c7.803-33.808 10.404-67.617 10.404-104.027 0-54.616-7.803-106.625-26.004-156.038h-270.469c5.202-18.207 13-33.812 20.803-52.014h231.46c-7.803-18.207-18.207-36.408-28.605-52.014h-174.244c10.399-18.207 23.404-36.408 36.408-52.014h98.826c-15.606-18.207-31.212-36.408-49.413-52.014 88.422-78.019 202.849-127.432 330.281-127.432 7.803 0 15.606 0 23.409 0 150.84 109.23 249.661 288.676 249.661 488.926 0 200.251-98.821 379.697-249.661 488.925-7.803 0-15.606 0-23.409 0-127.432 5.201-241.859-44.211-330.281-122.231z" />
<glyph unicode="&#xe928;" horiz-adv-x="1638" d="M429.124 346.24h-62.416l36.409 189.854-83.222-189.854h-54.614l-10.403 189.854-36.409-189.854h-54.614l46.812 249.669h96.224l5.201-156.040 67.617 156.040h98.826l-49.413-249.669z" />
<glyph unicode="&#xe929;" horiz-adv-x="1638" d="M369.345 455.468l36.409 80.621-28.607-150.839c2.6-13.005 5.201-28.605 10.402-41.61h41.611l46.812 249.664h-91.023c-10.403-39.010-18.205-83.222-18.205-127.433 2.601-2.6 2.601-5.201 2.601-10.402z" />
<glyph unicode="&#xe92a;" horiz-adv-x="1638" d="M1110.482 348.841c-18.207-5.202-28.611-7.803-44.211-7.803-31.212 0-46.812 15.606-46.812 44.211 0 5.202 0 10.404 2.601 18.207l2.596 20.803 2.601 15.606 28.611 153.439h59.812l-7.798-46.812h31.206l-7.803-46.812h-31.206l-15.606-83.224c0-2.601-2.601-7.798-2.601-7.798 0-10.404 7.803-15.606 20.808-15.606 7.803 0 13 0 15.601 2.601l-7.798-46.812z" />
<glyph unicode="&#xe92b;" horiz-adv-x="1638" d="M1289.928 546.489c-5.202 2.6-5.202 2.6-7.803 2.6s-5.202 0-5.202 2.601c-2.601 0-2.601 0-7.798 0-20.808 0-33.812-7.802-52.014-33.809l5.202 31.208h-54.615l-36.408-202.85h62.413c20.808 124.83 31.212 145.635 59.817 145.635 2.601 0 5.202 0 7.803 0l7.803-2.6 20.803 57.214z" />
<glyph unicode="&#xe92c;" horiz-adv-x="1638" d="M868.628 484.073c0-26.007 15.606-44.209 46.812-54.613 26.010-10.404 28.611-13.005 28.611-23.409 0-13-10.404-18.202-36.408-18.202-18.207 0-36.413 2.601-54.615 7.803l-7.803-46.812h2.601l10.404-2.601c2.601 0 10.404 0 15.601 0 15.606-2.601 26.010-2.601 33.812-2.601 65.014 0 96.225 20.803 96.225 67.615 0 28.611-13.005 44.212-44.216 57.215-26.004 10.403-28.605 13.003-28.605 20.806 0 10.402 10.404 15.604 31.206 15.604 10.404 0 28.611 0 44.211-2.6l7.803 46.812c-15.601 2.601-39.009 2.601-54.615 2.601-67.615 0-91.023-31.208-91.023-67.617z" />
<glyph unicode="&#xe92d;" horiz-adv-x="1638" d="M626.806 346.245h-49.413v20.803c-15.606-15.601-36.424-23.404-65.029-23.404-33.808 0-54.614 23.404-54.614 54.615 0 49.408 39.010 78.018 106.638 78.018 7.803 0 15.606 0 26.004 0 2.601 7.802 2.601 10.403 2.601 13.003 0 13.004-10.399 18.205-39.020 18.205-18.202 0-36.408-2.6-49.412-5.201l-7.802-2.601h-5.201l7.802 44.211c31.209 7.802 49.411 10.403 72.83 10.403 52.014 0 80.62-20.805 80.62-59.815 0-10.402 0-18.205-5.202-41.611l-13.005-72.818-2.596-13.005-2.601-10.404v-7.798l-2.601-2.601zM582.595 437.268c-7.803 0-10.404 0-13.005 0-33.818 0-52.024-10.404-52.024-31.212 0-13 7.803-20.803 20.808-20.803 26.015 0 44.221 20.803 44.221 52.014z" />
<glyph unicode="&#xe92e;" horiz-adv-x="1638" d="M826.962 351.447c-20.808-5.202-41.61-7.803-62.418-7.803-67.615 0-104.023 31.206-104.023 91.023 0 70.217 44.211 119.629 106.624 119.629 49.413 0 80.625-28.607 80.625-72.819 0-15.604-2.601-28.607-7.803-49.412h-122.235c0-2.601 0-5.202 0-7.803 0-23.409 18.207-36.408 52.014-36.408 23.409 0 41.61 2.601 62.418 13l-5.202-49.408zM795.756 471.075c0 2.601 0 7.802 0 10.403 0 15.604-10.404 26.007-28.611 26.007-18.202 0-33.807-13.003-39.009-36.409h67.62z" />
<glyph unicode="&#xe92f;" horiz-adv-x="1638" d="M1479.823 437.268c-10.404-67.62-57.216-96.225-119.629-96.225-67.62 0-96.225 41.61-96.225 93.624 0 70.217 46.812 119.629 119.629 119.629 62.418 0 96.225-41.611 96.225-91.023 0-13.003 0-13.003 0-26.005zM1414.81 463.273c0 20.806-7.803 39.010-33.812 39.010-31.206 0-49.413-36.409-49.413-70.217 0-26.010 13.005-44.211 33.812-44.211 13 0 41.61 18.202 46.812 49.413 2.601 10.399 2.601 18.203 2.601 26.005z" />
<glyph unicode="&#xe930;" horiz-adv-x="1638" d="M1266.524 411.249c2.601 18.207 5.202 39.011 5.202 57.215 0 2.601 0 5.201 0 5.201-2.601-13.003-5.202-26.009-5.202-41.609-2.601-5.202-2.601-13.005 0-20.808z" />
<glyph unicode="&#xe931;" horiz-adv-x="1690" d="M1689.559 468.48c0-270.464-225.28-491.52-506.88-491.52-278.917 0-506.88 221.056-506.88 491.52s225.28 491.52 504.197 491.52c284.283 0 509.563-221.056 509.563-491.52z" />
<glyph unicode="&#xe932;" horiz-adv-x="1690" d="M1182.679 960c278.917 0 506.88-221.056 506.88-491.52s-225.28-491.52-506.88-491.52c-278.917 0-506.88 221.056-506.88 491.52z" />
<glyph unicode="&#xe933;" horiz-adv-x="1690" d="M1182.7 960c278.917 0 506.88-221.056 506.88-491.52s-225.28-491.52-506.88-491.52z" />
<glyph unicode="&#xe934;" horiz-adv-x="1690" d="M501.514 960c-276.234-2.601-501.514-221.056-501.514-491.52s225.28-491.52 506.88-491.52c131.415 0 249.416 49.413 340.603 127.432 18.77 15.601 34.862 33.807 50.954 52.014h-104.591c-13.409 15.601-26.819 33.807-37.55 49.408h179.692c10.726 15.606 21.453 33.812 29.496 52.014h-238.689c-8.044 15.606-16.087 33.807-21.453 52.014h278.917c16.092 49.413 26.819 101.422 26.819 156.037 0 36.408-5.361 70.216-10.726 104.028h-311.101c2.683 18.202 8.044 33.807 13.409 52.009h278.917c-5.361 18.207-13.409 36.408-21.453 52.014h-236.006c8.044 18.207 18.77 33.807 29.496 52.014h179.692c-10.732 18.202-24.141 36.408-40.228 52.009h-99.231c16.087 18.207 32.179 33.812 50.954 49.413-88.504 80.62-209.188 127.432-340.603 127.432 0 5.202 0 5.202-2.683 5.202z" />
<glyph unicode="&#xe935;" horiz-adv-x="1690" d="M0 468.482c0-270.466 225.28-491.522 506.88-491.522 131.415 0 249.416 49.413 340.603 127.432 18.77 15.606 34.862 33.807 50.954 52.014h-104.591c-13.409 15.601-26.819 33.807-37.55 49.413h179.692c10.726 15.601 21.453 33.807 29.496 52.009h-238.689c-8.044 15.606-16.087 33.812-21.453 52.014h278.917c16.092 49.413 26.819 101.427 26.819 156.039 0 36.408-5.361 70.221-10.726 104.028h-311.101c2.683 18.202 8.044 33.807 13.409 52.009h278.917c-5.361 18.207-13.409 36.413-21.453 52.014h-236.006c8.044 18.207 18.77 33.807 29.496 52.014h179.692c-10.732 18.207-24.141 36.408-40.228 52.014h-99.231c16.087 18.202 32.179 33.807 50.954 49.408-88.504 80.62-209.188 127.432-340.603 127.432h-2.683z" />
<glyph unicode="&#xe936;" horiz-adv-x="1690" d="M506.866-23.040c131.409 0 249.415 49.413 340.602 127.432 18.77 15.606 34.862 33.807 50.954 52.014h-104.596c-13.409 15.601-26.819 33.807-37.545 49.413h179.686c10.732 15.601 21.458 33.807 29.501 52.009h-238.689c-8.044 15.606-16.092 33.812-21.453 52.014h278.917c16.092 49.413 26.819 101.427 26.819 156.039 0 36.408-5.366 70.221-10.726 104.028h-311.101c2.683 18.202 8.044 33.807 13.409 52.009h278.917c-5.366 18.207-13.409 36.413-21.453 52.014h-236.012c8.049 18.207 18.775 33.807 29.501 52.014h179.692c-10.732 18.207-24.141 36.408-40.233 52.014h-99.231c16.092 18.202 32.184 33.807 50.959 49.408-88.504 80.62-209.188 127.432-340.602 127.432h-2.683z" />
<glyph unicode="&#xe937;" horiz-adv-x="1690" d="M686.577 343.644l8.044 44.211c-2.683 0-8.044-2.601-13.409-2.601-18.775 0-21.453 10.404-18.775 15.606l16.092 91.020h29.501l8.049 49.413h-26.819l5.361 31.206h-53.637c0 0-32.184-171.64-32.184-192.447 0-31.206 18.775-44.211 42.911-44.211 16.092 0 29.501 5.202 34.867 7.803z" />
<glyph unicode="&#xe938;" horiz-adv-x="1690" d="M705.398 426.87c0-72.822 50.959-91.023 93.87-91.023 40.228 0 56.32 7.803 56.32 7.803l10.726 49.408c0 0-29.501-13-56.32-13-59.003 0-48.276 41.61-48.276 41.61h109.962c0 0 8.044 33.805 8.044 46.81 0 33.807-18.775 75.418-77.773 75.418-56.32 5.202-96.553-52.014-96.553-117.026zM799.268 502.285c29.501 0 24.136-33.807 24.136-36.408h-59.003c0 2.601 5.366 36.408 34.867 36.408z" />
<glyph unicode="&#xe939;" horiz-adv-x="1690" d="M1139.804 343.649l10.726 57.216c0 0-26.819-13.005-45.588-13.005-37.55 0-53.642 28.611-53.642 59.817 0 62.414 32.184 96.221 69.729 96.221 26.824 0 48.276-15.601 48.276-15.601l8.044 54.61c0 0-32.179 13.005-61.681 13.005-61.686 0-123.366-52.015-123.366-150.836 0-65.014 32.179-109.225 96.548-109.225 21.453 0 50.954 7.798 50.954 7.798z" />
<glyph unicode="&#xe93a;" horiz-adv-x="1690" d="M391.613 549.1c-37.55 0-64.369-10.404-64.369-10.404l-8.043-44.211c0 0 24.135 10.404 59.002 10.404 18.77 0 34.862-2.601 34.862-18.202 0-10.404-2.683-13.005-2.683-13.005s-16.087 0-24.136 0c-45.594 0-96.548-18.207-96.548-78.019 0-46.812 32.184-57.216 50.954-57.216 37.55 0 53.642 23.409 56.32 23.409l-2.678-20.808h48.272l21.457 143.038c0 62.413-53.642 65.014-72.412 65.014zM402.34 432.072c0-7.803-5.366-49.413-37.545-49.413-16.092 0-21.458 13.005-21.458 20.808 0 13 8.049 31.206 48.276 31.206 8.044-2.601 10.726-2.601 10.726-2.601z" />
<glyph unicode="&#xe93b;" horiz-adv-x="1690" d="M514.985 338.447c13.409 0 80.456-2.601 80.456 67.615 0 65.018-64.364 52.014-64.364 78.023 0 13 10.726 18.202 29.501 18.202 8.044 0 37.545-2.601 37.545-2.601l8.044 46.812c0 0-18.77 5.202-50.954 5.202-40.228 0-80.455-15.606-80.455-67.615 0-59.816 67.046-54.615 67.046-78.023 0-15.601-18.775-18.202-32.184-18.202-24.136 0-48.271 7.803-48.271 7.803l-8.049-46.812c2.683-5.202 16.092-10.404 61.685-10.404z" />
<glyph unicode="&#xe93c;" horiz-adv-x="1690" d="M1585.070 590.712l-10.732-70.221c0 0-21.453 26.010-50.954 26.010-48.271 0-91.182-57.216-91.182-124.828 0-41.61 21.453-85.821 67.046-85.821 32.184 0 50.954 20.803 50.954 20.803l-2.683-18.202h53.642l40.228 249.659-56.32 2.601zM1560.929 452.877c0-28.603-13.409-65.016-42.911-65.016-18.77 0-29.496 15.606-29.496 41.61 0 41.608 18.77 67.617 42.911 67.617 18.77 0 29.496-13.005 29.496-44.211z" />
<glyph unicode="&#xe93d;" horiz-adv-x="1690" d="M99.254 341.053l32.184 187.241 5.361-187.241h37.55l69.729 187.241-29.501-187.241h56.32l42.911 249.659h-88.504l-53.637-153.439-2.683 153.439h-77.773l-42.911-249.659h50.954z" />
<glyph unicode="&#xe93e;" horiz-adv-x="1690" d="M930.601 341.053c16.092 85.816 18.775 156.040 56.32 143.035 5.366 33.807 13.409 46.812 18.775 59.812 0 0-2.683 0-10.726 0-24.141 0-42.911-31.206-42.911-31.206l5.361 28.611h-50.954l-34.867-202.852h59.003v2.601z" />
<glyph unicode="&#xe93f;" horiz-adv-x="1690" d="M1263.212 549.1c-37.545 0-64.364-10.404-64.364-10.404l-8.049-44.211c0 0 24.141 10.404 59.003 10.404 18.775 0 34.867-2.601 34.867-18.202 0-10.404-2.683-13.005-2.683-13.005s-16.092 0-24.136 0c-45.594 0-96.553-18.207-96.553-78.019 0-46.812 32.184-57.216 50.959-57.216 37.545 0 53.637 23.409 56.32 23.409l-2.683-20.808h48.276l21.453 143.038c2.683 62.413-53.637 65.014-72.412 65.014zM1276.621 432.072c0-7.803-5.361-49.413-37.545-49.413-16.092 0-21.458 13.005-21.458 20.808 0 13 8.049 31.206 48.276 31.206 8.044-2.601 8.044-2.601 10.726-2.601z" />
<glyph unicode="&#xe940;" horiz-adv-x="1690" d="M1381.202 341.053c16.092 85.816 18.775 156.040 56.32 143.035 5.366 33.807 13.409 46.812 18.775 59.812 0 0-2.683 0-10.732 0-24.136 0-42.911-31.206-42.911-31.206l5.366 28.611h-50.954l-34.867-202.852h59.003v2.601z" />
<glyph unicode="&#xe941;" horiz-adv-x="1690" d="M603.5 380.052c0-31.206 18.775-44.211 42.911-44.211 18.775 0 34.867 5.202 40.228 7.803l8.049 44.211c-2.683 0-8.049-2.601-13.409-2.601-18.775 0-21.458 10.404-18.775 15.606l16.092 91.020h29.501l8.044 49.413h-26.819l5.366 31.206z" />
<glyph unicode="&#xe942;" horiz-adv-x="1690" d="M732.201 426.87c0-72.822 24.136-91.023 67.046-91.023 40.228 0 56.32 7.803 56.32 7.803l10.726 49.408c0 0-29.501-13-56.32-13-59.003 0-48.271 41.61-48.271 41.61h109.957c0 0 8.044 33.805 8.044 46.81 0 33.807-18.77 75.418-77.773 75.418-56.32 5.202-69.729-52.014-69.729-117.026zM799.247 502.285c29.501 0 34.867-33.807 34.867-36.408h-69.729c0 2.601 5.361 36.408 34.862 36.408z" />
<glyph unicode="&#xe943;" horiz-adv-x="1690" d="M1139.784 343.649l10.732 57.216c0 0-26.819-13.005-45.594-13.005-37.545 0-53.637 28.611-53.637 59.817 0 62.414 32.179 96.221 69.729 96.221 26.819 0 48.271-15.601 48.271-15.601l8.049 54.61c0 0-32.184 13.005-61.686 13.005-61.686 0-96.548-52.015-96.548-150.836 0-65.014 5.366-109.225 69.729-109.225 21.453 0 50.954 7.798 50.954 7.798z" />
<glyph unicode="&#xe944;" horiz-adv-x="1690" d="M319.202 491.891c0 0 24.135 10.399 59.002 10.399 18.77 0 34.862-2.596 34.862-18.202 0-10.404-2.683-13.005-2.683-13.005s-16.087 0-24.136 0c-45.594 0-96.548-18.202-96.548-78.021 0-46.812 32.184-57.211 50.954-57.211 37.55 0 53.642 23.404 56.32 23.404l-2.678-20.803h48.272l21.457 143.035c0 59.817-53.642 62.413-75.095 62.413l-69.729-52.009zM429.158 432.072c0-7.803-32.184-49.408-64.364-49.408-16.092 0-21.458 13-21.458 20.803 0 13.005 8.049 31.206 48.276 31.206 8.044-2.601 37.545-2.601 37.545-2.601z" />
<glyph unicode="&#xe945;" horiz-adv-x="1690" d="M455.9 343.649c0 0 16.092-5.202 61.686-5.202 13.409 0 80.456-2.601 80.456 67.615 0 65.018-64.369 52.014-64.369 78.023 0 13 10.732 18.202 29.501 18.202 8.049 0 37.55-2.601 37.55-2.601l8.044 46.812c0 0-18.775 5.202-50.954 5.202-40.228 0-53.638-15.606-53.638-67.615 0-59.816 40.228-54.615 40.228-78.023 0-15.601-18.775-18.202-32.184-18.202z" />
<glyph unicode="&#xe946;" horiz-adv-x="1690" d="M1574.318 520.493c0 0-21.458 26.010-50.959 26.010-48.271 0-64.364-57.216-64.364-124.829 0-41.61-5.366-85.821 40.228-85.821 32.184 0 50.954 20.808 50.954 20.808l-2.678-18.207h53.637l40.228 249.66-67.046-67.62zM1571.635 452.878c0-28.604-24.136-65.012-53.637-65.012-18.775 0-29.501 15.601-29.501 41.61 0 41.609 18.77 67.613 42.911 67.613 18.77 0 40.228-13.005 40.228-44.211z" />
<glyph unicode="&#xe947;" horiz-adv-x="1690" d="M99.254 341.053l32.184 187.241 5.361-187.241h37.55l69.729 187.241-29.501-187.241h56.32l42.911 249.659h-67.052l-75.090-153.439-2.683 153.439h-29.501l-91.182-249.659h50.954z" />
<glyph unicode="&#xe948;" horiz-adv-x="1690" d="M874.301 341.053h56.32c16.092 85.816 18.77 156.040 56.32 143.035 5.361 33.807 13.409 46.812 18.77 59.812 0 0-2.678 0-10.726 0-24.136 0-42.911-31.206-42.911-31.206l5.366 28.611z" />
<glyph unicode="&#xe949;" horiz-adv-x="1690" d="M1190.799 491.891c0 0 24.141 10.399 59.003 10.399 18.775 0 34.867-2.596 34.867-18.202 0-10.404-2.683-13.005-2.683-13.005s-16.092 0-24.136 0c-45.594 0-96.553-18.202-96.553-78.021 0-46.812 32.184-57.211 50.959-57.211 37.545 0 53.637 23.404 56.32 23.404l-2.683-20.803h48.276l21.453 143.035c0 59.817-53.637 62.413-75.095 62.413l-69.729-52.009zM1300.756 432.072c0-7.803-32.179-49.408-64.364-49.408-16.092 0-21.453 13-21.453 20.803 0 13.005 8.044 31.206 48.271 31.206 10.726-2.601 37.545-2.601 37.545-2.601z" />
<glyph unicode="&#xe94a;" horiz-adv-x="1690" d="M1324.902 341.053h56.32c16.087 85.816 18.77 156.040 56.32 143.035 5.361 33.807 13.409 46.812 18.77 59.812 0 0-2.683 0-10.726 0-24.136 0-42.911-31.206-42.911-31.206l5.366 28.611z" />
<glyph unicode="&#xe94b;" glyph-name="query_builder" d="M511.573 874.667c-235.52 0-426.24-191.147-426.24-426.667s190.72-426.667 426.24-426.667c235.947 0 427.093 191.147 427.093 426.667s-191.147 426.667-427.093 426.667zM512 106.667c-188.587 0-341.333 152.747-341.333 341.333s152.747 341.333 341.333 341.333c188.587 0 341.333-152.747 341.333-341.333s-152.747-341.333-341.333-341.333zM533.333 661.333h-64v-256l224-134.4 32 52.48-192 113.92v224z" />
<glyph unicode="&#xe94c;" glyph-name="receipt_long" d="M832 810.667l-64 64-64-64-64 64-64-64-64 64-64-64-64 64-64-64-64 64v-597.333h-128v-128c0-70.827 57.173-128 128-128h512c70.827 0 128 57.173 128 128v725.333l-64-64zM640 106.667h-384c-23.467 0-42.667 19.2-42.667 42.667v42.667h426.667v-85.333zM810.667 149.333c0-23.467-19.2-42.667-42.667-42.667s-42.667 19.2-42.667 42.667v128h-384v469.333h469.333v-597.333zM640 661.333h-256v-85.333h256v85.333zM768 661.333h-85.333v-85.333h85.333v85.333zM640 533.333h-256v-85.333h256v85.333zM768 533.333h-85.333v-85.333h85.333v85.333z" />
<glyph unicode="&#xe94d;" glyph-name="search" d="M661.333 362.667h-33.707l-11.947 11.52c41.813 48.64 66.987 111.787 66.987 180.48 0 153.173-124.16 277.333-277.333 277.333s-277.333-124.16-277.333-277.333c0-153.173 124.16-277.333 277.333-277.333 68.693 0 131.84 25.173 180.48 66.987l11.52-11.947v-33.707l213.333-212.907 63.573 63.573-212.907 213.333zM405.333 362.667c-106.24 0-192 85.76-192 192s85.76 192 192 192c106.24 0 192-85.76 192-192s-85.76-192-192-192z" />
<glyph unicode="&#xe94e;" glyph-name="show" d="M512 576c-33.877-0.224-66.308-13.781-90.263-37.737-23.956-23.954-37.514-56.385-37.737-90.263 0-70.059 57.941-128 128-128 70.016 0 128 57.941 128 128 0 70.016-57.984 128-128 128zM511.996 746.684c-325.674 0-423.551-282.325-424.447-285.184l-4.523-13.483 4.48-13.483c0.939-2.859 98.816-285.184 424.49-285.184s423.552 282.325 424.448 285.184l4.523 13.483-4.48 13.483c-0.939 2.859-98.816 285.184-424.491 285.184zM511.996 234.684c-228.308 0-316.756 164.096-338.175 213.333 21.504 49.408 109.995 213.333 338.175 213.333 228.309 0 316.757-164.096 338.176-213.333-21.504-49.408-109.995-213.333-338.176-213.333z" />
<glyph unicode="&#xe94f;" glyph-name="success" d="M512 874.667c-235.52 0-426.667-191.147-426.667-426.667s191.147-426.667 426.667-426.667c235.52 0 426.667 191.147 426.667 426.667s-191.147 426.667-426.667 426.667zM512 106.667c-188.16 0-341.333 153.173-341.333 341.333s153.173 341.333 341.333 341.333c188.16 0 341.333-153.173 341.333-341.333s-153.173-341.333-341.333-341.333zM707.84 636.587l-281.173-281.173-110.507 110.080-60.16-60.16 170.667-170.667 341.333 341.333-60.16 60.587z" />
<glyph unicode="&#xe950;" glyph-name="add_shopping_cart" d="M469.333 576h85.333v128h128v85.333h-128v128h-85.333v-128h-128v-85.333h128v-128zM298.667 192c-46.933 0-84.907-38.4-84.907-85.333s37.973-85.333 84.907-85.333c46.933 0 85.333 38.4 85.333 85.333s-38.4 85.333-85.333 85.333zM725.333 192c-46.933 0-84.907-38.4-84.907-85.333s37.973-85.333 84.907-85.333c46.933 0 85.333 38.4 85.333 85.333s-38.4 85.333-85.333 85.333zM345.6 405.333h317.867c32 0 60.16 17.493 74.667 43.947l164.693 299.093-74.24 40.96-165.12-298.667h-299.52l-181.76 384h-139.52v-85.333h85.333l153.6-323.84-57.6-104.107c-31.147-57.173 9.813-126.72 74.667-126.72h512v85.333h-512l46.933 85.333z" />
<glyph unicode="&#xe951;" glyph-name="user" d="M512 874.667c-235.52 0-426.667-191.147-426.667-426.667s191.147-426.667 426.667-426.667c235.52 0 426.667 191.147 426.667 426.667s-191.147 426.667-426.667 426.667zM301.653 180.053c18.347 38.4 130.133 75.947 210.347 75.947s192.427-37.547 210.347-75.947c-58.027-46.080-130.987-73.387-210.347-73.387s-152.32 27.307-210.347 73.387zM783.36 241.92c-61.013 74.24-209.067 99.413-271.36 99.413s-210.347-25.173-271.36-99.413c-43.52 57.173-69.973 128.427-69.973 206.080 0 188.16 153.173 341.333 341.333 341.333s341.333-153.173 341.333-341.333c0-77.653-26.453-148.907-69.973-206.080v0zM512 704c-82.773 0-149.333-66.56-149.333-149.333s66.56-149.333 149.333-149.333c82.773 0 149.333 66.56 149.333 149.333s-66.56 149.333-149.333 149.333zM512 490.667c-35.413 0-64 28.587-64 64s28.587 64 64 64c35.413 0 64-28.587 64-64s-28.587-64-64-64z" />
<glyph unicode="&#xe952;" horiz-adv-x="3218" d="M1179.999 9.845l163.467 919.508h255.422l-158.362-919.508h-260.528z" />
<glyph unicode="&#xe953;" horiz-adv-x="3218" d="M1179.999 9.845l209.445 919.508h209.445l-158.362-919.508h-260.528z" />
<glyph unicode="&#xe954;" horiz-adv-x="3218" d="M2365.155 919.128c-51.083 20.436-132.82 40.872-234.986 40.872-255.422 0-439.318-127.715-439.318-311.611 0-137.933 127.707-209.445 229.873-255.422s132.82-76.624 132.82-117.497c0-61.294-81.737-91.948-153.249-91.948-102.173 0-158.362 15.323-245.204 51.083l-35.76 15.323-35.76-209.445c61.301-25.541 173.685-51.083 291.174-51.083 270.746 0 449.543 127.715 449.543 321.829 0 107.279-66.414 189.016-219.663 255.422-91.948 45.978-148.144 71.519-148.144 117.489 0 40.872 45.978 81.737 148.144 81.737 86.843 0 148.144-15.323 194.121-35.76l25.541-10.218 40.865 199.227z" />
<glyph unicode="&#xe955;" horiz-adv-x="3218" d="M2365.155 919.128c-51.083 20.436-132.82 40.872-234.986 40.872-255.422 0-393.348-127.715-393.348-311.611 0-137.933 81.737-209.445 183.903-255.422s132.82-76.624 132.82-117.497c0-61.294-81.737-91.948-153.249-91.948-102.173 0-158.362 15.323-245.204 51.083l-35.76 15.323-35.76-209.445c61.301-25.541 173.685-51.083 291.174-51.083 270.746 0 449.543 127.715 449.543 321.829 0 107.279-66.414 189.016-219.663 255.422-91.948 45.978-148.144 71.519-148.144 117.489 0 40.872 45.978 81.737 148.144 81.737 86.843 0 148.144-15.323 194.121-35.76l25.541-10.218 40.865 199.227z" />
<glyph unicode="&#xe956;" horiz-adv-x="3218" d="M2804.517 929.353c-61.301 0-107.271-5.105-132.813-66.407l-383.13-853.101h275.851l51.083 153.249h326.934l30.654-153.249h245.204l-214.557 919.508h-199.227zM2687.027 316.349c15.323 45.978 102.166 270.746 102.166 270.746s20.436 56.188 35.76 91.948l15.323-86.843c0 0 51.083-229.873 61.301-280.964h-214.55v5.113z" />
<glyph unicode="&#xe957;" horiz-adv-x="3218" d="M2865.818 929.353c-61.301 0-107.271-5.105-132.813-66.407l-444.431-853.101h275.851l51.083 153.249h326.934l30.654-153.249h245.204l-214.557 919.508h-137.925zM2687.027 316.349c20.429 51.083 102.166 270.746 102.166 270.746s20.436 56.188 35.76 91.948l15.323-86.843c0 0 51.083-229.873 61.301-280.964h-214.55v5.113z" />
<glyph unicode="&#xe958;" horiz-adv-x="3218" d="M710.129 285.706l-25.542 132.813c-45.975 153.256-194.119 321.829-357.587 403.566l229.878-817.344h275.854l413.776 919.51h-275.851l-260.528-638.544z" />
<glyph unicode="&#xe959;" horiz-adv-x="3218" d="M710.129 285.706l-25.542 132.813c-45.975 153.256-194.119 321.829-357.587 403.566l229.878-817.344h275.854l413.776 919.51h-224.768l-311.611-638.544z" />
<glyph unicode="&#xe95a;" horiz-adv-x="3218" d="M0 929.353l45.975-10.218c326.937-76.625 551.706-270.739 638.549-500.619l-91.951 434.213c-15.326 61.301-61.301 76.625-117.493 76.625h-475.080z" />
<glyph unicode="&#xe95b;" horiz-adv-x="3218" d="M0 929.353c326.937-76.625 597.682-275.851 684.524-505.732l-86.843 362.701c-15.326 61.301-66.409 97.061-122.601 97.061l-475.080 45.971z" />
<glyph unicode="&#xe95c;" horiz-adv-x="3218" d="M0 929.353c326.937-76.625 597.682-275.851 684.524-505.732l-61.301 199.234c-15.325 61.301-35.758 122.595-107.276 148.144l-515.948 158.355z" />
<glyph unicode="&#xe95d;" horiz-adv-x="3218" d="M965.442 316.36l-173.685 173.685-81.736-194.121-20.434 127.707c-45.975 153.256-194.119 321.829-357.587 403.566l229.878-817.344h275.85l127.715 306.507z" />
<glyph unicode="&#xe95e;" horiz-adv-x="3218" d="M1440.527 9.852l-219.663 224.768-40.865-224.768h260.528z" />
<glyph unicode="&#xe95f;" horiz-adv-x="3218" d="M2028.003 326.567c20.429-20.429 30.647-35.76 25.541-56.188 0-61.3-81.737-91.954-153.256-91.954-102.166 0-158.354 15.323-245.197 51.082l-35.76 15.331-35.76-209.443c61.301-25.541 173.685-51.083 291.174-51.083 163.474 0 296.287 45.97 372.919 127.707l-219.663 214.548z" />
<glyph unicode="&#xe960;" horiz-adv-x="3218" d="M2324.283 9.852h240.099l51.083 153.249h326.934l30.654-153.249h245.204l-86.843 372.909-306.505 296.287 15.323-81.729c0 0 51.083-229.881 61.301-280.964h-214.55c20.429 51.083 102.166 270.746 102.166 270.746s20.436 56.188 35.76 91.947z" />
<glyph unicode="&#xe961;" glyph-name="chat" d="M170.667 789.333h682.667v-512h-632.747l-49.92-49.92v561.92zM170.667 874.667c-46.933 0-84.907-38.4-84.907-85.333l-0.427-768 170.667 170.667h597.333c46.933 0 85.333 38.4 85.333 85.333v512c0 46.933-38.4 85.333-85.333 85.333h-682.667zM256 448h341.333v-85.333h-341.333v85.333zM256 576h512v-85.333h-512v85.333zM256 704h512v-85.333h-512v85.333z" />
<glyph unicode="&#xe962;" glyph-name="clear" d="M810.667 686.507l-60.16 60.16-238.507-238.507-238.507 238.507-60.16-60.16 238.507-238.507-238.507-238.507 60.16-60.16 238.507 238.507 238.507-238.507 60.16 60.16-238.507 238.507 238.507 238.507z" />
<glyph unicode="&#xe963;" glyph-name="comment" d="M938.24 789.333c0 46.933-37.973 85.333-84.907 85.333h-682.667c-46.933 0-85.333-38.4-85.333-85.333v-512c0-46.933 38.4-85.333 85.333-85.333h597.333l170.667-170.667-0.427 768zM853.333 789.333v-561.92l-49.92 49.92h-632.747v512h682.667zM256 448h512v-85.333h-512v85.333zM256 576h512v-85.333h-512v85.333zM256 704h512v-85.333h-512v85.333z" />
<glyph unicode="&#xe964;" glyph-name="devices_other" d="M128 704h768v85.333h-768c-46.933 0-85.333-38.4-85.333-85.333v-512c0-46.933 38.4-85.333 85.333-85.333h170.667v85.333h-170.667v512zM554.667 448h-170.667v-75.947c-26.027-23.467-42.667-56.747-42.667-94.72s16.64-71.253 42.667-94.72v-75.947h170.667v75.947c26.027 23.467 42.667 57.173 42.667 94.72s-16.64 71.253-42.667 94.72v75.947zM469.333 213.333c-35.413 0-64 28.587-64 64s28.587 64 64 64c35.413 0 64-28.587 64-64s-28.587-64-64-64zM938.667 618.667h-256c-21.333 0-42.667-21.333-42.667-42.667v-426.667c0-21.333 21.333-42.667 42.667-42.667h256c21.333 0 42.667 21.333 42.667 42.667v426.667c0 21.333-21.333 42.667-42.667 42.667zM896 192h-170.667v341.333h170.667v-341.333z" />
<glyph unicode="&#xe965;" glyph-name="get_app" d="M554.667 746.667v-256h49.92l-92.587-92.587-92.587 92.587h49.92v256h85.333zM640 832h-256v-256h-170.667l298.667-298.667 298.667 298.667h-170.667v256zM810.667 192h-597.333v-85.333h597.333v85.333z" />
<glyph unicode="&#xe966;" glyph-name="Group-253" d="M554.667 832h-85.333v-426.667h85.333v426.667zM760.747 739.413l-60.587-60.587c67.413-54.187 110.507-137.387 110.507-230.827 0-165.12-133.547-298.667-298.667-298.667s-298.667 133.547-298.667 298.667c0 93.44 43.093 176.64 110.080 231.253l-60.16 60.16c-82.773-70.4-135.253-174.507-135.253-291.413 0-212.053 171.947-384 384-384s384 171.947 384 384c0 116.907-52.48 221.013-135.253 291.413z" />
<glyph unicode="&#xe967;" glyph-name="home" d="M512 717.227l213.333-192v-333.227h-85.333v256h-256v-256h-85.333v333.227l213.333 192zM512 832l-426.667-384h128v-341.333h256v256h85.333v-256h256v341.333h128l-426.667 384z" />
<glyph unicode="&#xe968;" glyph-name="https" d="M768 618.667h-42.667v85.333c0 117.76-95.573 213.333-213.333 213.333s-213.333-95.573-213.333-213.333v-85.333h-42.667c-46.933 0-85.333-38.4-85.333-85.333v-426.667c0-46.933 38.4-85.333 85.333-85.333h512c46.933 0 85.333 38.4 85.333 85.333v426.667c0 46.933-38.4 85.333-85.333 85.333zM384 704c0 70.827 57.173 128 128 128s128-57.173 128-128v-85.333h-256v85.333zM768 106.667h-512v426.667h512v-426.667zM512 234.667c46.933 0 85.333 38.4 85.333 85.333s-38.4 85.333-85.333 85.333c-46.933 0-85.333-38.4-85.333-85.333s38.4-85.333 85.333-85.333z" />
<glyph unicode="&#xe969;" glyph-name="insert_photo" d="M810.667 746.667v-597.333h-597.333v597.333h597.333zM810.667 832h-597.333c-46.933 0-85.333-38.4-85.333-85.333v-597.333c0-46.933 38.4-85.333 85.333-85.333h597.333c46.933 0 85.333 38.4 85.333 85.333v597.333c0 46.933-38.4 85.333-85.333 85.333zM603.307 453.973l-128-165.12-91.307 110.507-128-164.693h512l-164.693 219.307z" />
<glyph unicode="&#xe96a;" glyph-name="language" d="M511.573 874.667c-235.52 0-426.24-191.147-426.24-426.667s190.72-426.667 426.24-426.667c235.947 0 427.093 191.147 427.093 426.667s-191.147 426.667-427.093 426.667zM807.253 618.667h-125.867c-13.653 53.333-33.28 104.533-58.88 151.893 78.507-26.88 143.787-81.493 184.747-151.893zM512 787.627c35.413-51.2 63.147-107.947 81.493-168.96h-162.987c18.347 61.013 46.080 117.76 81.493 168.96zM181.76 362.667c-6.827 27.307-11.093 55.893-11.093 85.333s4.267 58.027 11.093 85.333h144.213c-3.413-28.16-5.973-56.32-5.973-85.333s2.56-57.173 5.973-85.333h-144.213zM216.747 277.333h125.867c13.653-53.333 33.28-104.533 58.88-151.893-78.507 26.88-143.787 81.067-184.747 151.893v0zM342.613 618.667h-125.867c40.96 70.827 106.24 125.013 184.747 151.893-25.6-47.36-45.227-98.56-58.88-151.893v0zM512 108.373c-35.413 51.2-63.147 107.947-81.493 168.96h162.987c-18.347-61.013-46.080-117.76-81.493-168.96zM611.84 362.667h-199.68c-3.84 28.16-6.827 56.32-6.827 85.333s2.987 57.6 6.827 85.333h199.68c3.84-27.733 6.827-56.32 6.827-85.333s-2.987-57.173-6.827-85.333zM622.507 125.44c25.6 47.36 45.227 98.56 58.88 151.893h125.867c-40.96-70.4-106.24-125.013-184.747-151.893v0zM698.027 362.667c3.413 28.16 5.973 56.32 5.973 85.333s-2.56 57.173-5.973 85.333h144.213c6.827-27.307 11.093-55.893 11.093-85.333s-4.267-58.027-11.093-85.333h-144.213z" />
<glyph unicode="&#xe96b;" glyph-name="mail" d="M938.667 704c0 46.933-38.4 85.333-85.333 85.333h-682.667c-46.933 0-85.333-38.4-85.333-85.333v-512c0-46.933 38.4-85.333 85.333-85.333h682.667c46.933 0 85.333 38.4 85.333 85.333v512zM853.333 704l-341.333-212.907-341.333 212.907h682.667zM853.333 192h-682.667v426.667l341.333-213.333 341.333 213.333v-426.667z" />
<glyph unicode="&#xe96c;" glyph-name="mobile_friendly" d="M810.662 917.333h-426.665c-46.933 0-85.333-38.4-85.333-85.333v-128h85.333v85.333h426.665v-682.667h-426.665v85.333h-85.333v-128c0-46.933 38.4-85.333 85.333-85.333h426.665c46.933 0 85.333 38.4 85.333 85.333v768c0 46.933-38.4 85.333-85.333 85.333zM299.091 385.28l-108.8 108.8-54.187-54.187 162.56-162.56 306.772 306.773-54.187 54.187-252.158-253.013z" />
<glyph unicode="&#xe96d;" glyph-name="notifications" d="M512 21.333c46.933 0 85.333 38.4 85.333 85.333h-170.667c0-46.933 38.4-85.333 85.333-85.333zM768 277.333v213.333c0 130.987-69.547 240.64-192 269.653v29.013c0 35.413-28.587 64-64 64s-64-28.587-64-64v-29.013c-122.027-29.013-192-138.24-192-269.653v-213.333l-85.333-85.333v-42.667h682.667v42.667l-85.333 85.333zM682.667 234.667h-341.333v256c0 105.813 64.427 192 170.667 192s170.667-86.187 170.667-192v-256z" />
<glyph unicode="&#xe96e;" glyph-name="picture_as_pdf" d="M853.333 874.667h-512c-46.933 0-85.333-38.4-85.333-85.333v-512c0-46.933 38.4-85.333 85.333-85.333h512c46.933 0 85.333 38.4 85.333 85.333v512c0 46.933-38.4 85.333-85.333 85.333zM853.333 277.333h-512v512h512v-512zM170.667 704h-85.333v-597.333c0-46.933 38.4-85.333 85.333-85.333h597.333v85.333h-597.333v597.333zM682.667 448v128c0 23.467-19.2 42.667-42.667 42.667h-85.333v-213.333h85.333c23.467 0 42.667 19.2 42.667 42.667zM597.333 576h42.667v-128h-42.667v128zM768 490.667h42.667v42.667h-42.667v42.667h42.667v42.667h-85.333v-213.333h42.667v85.333zM426.667 490.667h42.667c23.467 0 42.667 19.2 42.667 42.667v42.667c0 23.467-19.2 42.667-42.667 42.667h-85.333v-213.333h42.667v85.333zM426.667 576h42.667v-42.667h-42.667v42.667z" />
<glyph unicode="&#xe96f;" glyph-name="print" d="M810.667 618.667h-42.667v213.333h-512v-213.333h-42.667c-70.827 0-128-57.173-128-128v-256h170.667v-170.667h512v170.667h170.667v256c0 70.827-57.173 128-128 128zM341.333 746.667h341.333v-128h-341.333v128zM682.667 234.667v-85.333h-341.333v170.667h341.333v-85.333zM768 320v85.333h-512v-85.333h-85.333v170.667c0 23.467 19.2 42.667 42.667 42.667h597.333c23.467 0 42.667-19.2 42.667-42.667v-170.667h-85.333zM768 426.667c23.565 0 42.667 19.102 42.667 42.667s-19.102 42.667-42.667 42.667c-23.565 0-42.667-19.102-42.667-42.667s19.102-42.667 42.667-42.667z" />
<glyph unicode="&#xe970;" glyph-name="reply_all" d="M298.667 618.667v128l-298.667-298.667 298.667-298.667v128l-170.667 170.667 170.667 170.667zM554.667 576v170.667l-298.667-298.667 298.667-298.667v174.933c213.333 0 362.667-68.267 469.333-217.6-42.667 213.333-170.667 426.667-469.333 469.333z" />
<glyph unicode="&#xe971;" glyph-name="reply" d="M426.667 576v170.667l-298.667-298.667 298.667-298.667v174.933c213.333 0 362.667-68.267 469.333-217.6-42.667 213.333-170.667 426.667-469.333 469.333z" />
<glyph unicode="&#xe972;" glyph-name="send" d="M171.093 702.72l320.427-137.387-320.853 42.667 0.427 94.72zM491.093 330.667l-320.427-137.387v94.72l320.427 42.667zM85.76 832l-0.427-298.667 640-85.333-640-85.333 0.427-298.667 895.573 384-895.573 384z" />
<glyph unicode="&#xe973;" glyph-name="settings" d="M829.013 406.187c1.707 13.653 2.987 27.307 2.987 41.813s-1.28 28.16-2.987 41.813l90.027 70.4c8.107 6.4 10.24 17.92 5.12 27.307l-85.333 147.627c-3.84 6.827-11.093 10.667-18.773 10.667-2.56 0-5.12-0.427-7.253-1.28l-106.24-42.667c-22.187 17.067-46.080 31.147-72.107 41.813l-16.213 113.067c-1.28 10.24-10.24 17.92-20.907 17.92h-170.668c-10.667 0-19.627-7.68-20.907-17.92l-16.213-113.067c-26.027-10.667-49.92-25.173-72.107-41.813l-106.24 42.667c-2.56 0.853-5.12 1.28-7.68 1.28-7.253 0-14.507-3.84-18.347-10.667l-85.333-147.627c-5.547-9.387-2.987-20.907 5.12-27.307l90.027-70.4c-1.707-13.653-2.987-27.733-2.987-41.813s1.28-28.16 2.987-41.813l-90.027-70.4c-8.107-6.4-10.24-17.92-5.12-27.307l85.333-147.627c3.84-6.827 11.093-10.667 18.773-10.667 2.56 0 5.12 0.427 7.253 1.28l106.24 42.667c22.187-17.067 46.080-31.147 72.107-41.813l16.213-113.067c1.28-10.24 10.24-17.92 20.907-17.92h170.668c10.667 0 19.627 7.68 20.907 17.92l16.213 113.067c26.027 10.667 49.92 25.173 72.107 41.813l106.24-42.667c2.56-0.853 5.12-1.28 7.68-1.28 7.253 0 14.507 3.84 18.347 10.667l85.333 147.627c5.12 9.387 2.987 20.907-5.12 27.307l-90.027 70.4zM744.533 479.147c1.707-13.227 2.133-22.187 2.133-31.147s-0.853-18.347-2.133-31.147l-5.973-48.213 37.973-29.867 46.080-35.84-29.867-51.627-54.187 21.76-44.373 17.92-38.4-29.013c-18.347-13.653-35.84-23.893-53.333-31.147l-45.227-18.347-6.827-48.213-8.533-57.6h-59.733l-8.107 57.6-6.827 48.213-45.228 18.347c-18.347 7.68-35.413 17.493-52.48 30.293l-38.827 29.867-45.227-18.347-54.187-21.76-29.867 51.627 46.080 35.84 37.973 29.867-5.973 48.213c-1.28 13.227-2.133 23.040-2.133 31.573s0.853 18.347 2.133 31.147l5.973 48.213-37.973 29.867-46.080 35.84 29.867 51.627 54.187-21.76 44.373-17.92 38.4 29.013c18.347 13.653 35.84 23.893 53.333 31.147l45.228 18.347 6.827 48.213 8.533 57.6h59.307l8.107-57.6 6.827-48.213 45.227-18.347c18.347-7.68 35.413-17.493 52.48-30.293l38.827-29.867 45.227 18.347 54.187 21.76 29.867-51.627-45.653-36.267-37.973-29.867 5.973-48.213zM512 618.667c-94.295 0-170.668-76.373-170.668-170.667s76.373-170.667 170.668-170.667c94.293 0 170.667 76.373 170.667 170.667s-76.373 170.667-170.667 170.667zM512 362.667c-46.933 0-85.335 38.4-85.335 85.333s38.402 85.333 85.335 85.333c46.933 0 85.333-38.4 85.333-85.333s-38.4-85.333-85.333-85.333z" />
<glyph unicode="&#xe974;" glyph-name="shopping_cart" d="M663.467 405.333c32 0 60.16 17.493 74.667 43.947l152.747 276.907c15.787 28.16-4.693 63.147-37.12 63.147h-631.467l-40.107 85.333h-139.52v-85.333h85.333l153.6-323.84-57.6-104.107c-31.147-57.173 9.813-126.72 74.667-126.72h512v85.333h-512l46.933 85.333h317.867zM262.827 704h518.4l-117.76-213.333h-299.52l-101.12 213.333zM298.667 192c-46.933 0-84.907-38.4-84.907-85.333s37.973-85.333 84.907-85.333c46.933 0 85.333 38.4 85.333 85.333s-38.4 85.333-85.333 85.333zM725.333 192c-46.933 0-84.907-38.4-84.907-85.333s37.973-85.333 84.907-85.333c46.933 0 85.333 38.4 85.333 85.333s-38.4 85.333-85.333 85.333z" />
<glyph unicode="&#xe975;" glyph-name="Vector" d="M318.578 243.2l-238.933 238.933-79.644-79.644 318.578-318.578 682.667 682.667-79.644 79.644-603.022-603.022z" />
<glyph unicode="&#xe976;" glyph-name="verified_user" d="M512 917.333l-384-170.667v-256c0-236.8 163.84-458.24 384-512 220.16 53.76 384 275.2 384 512v256l-384 170.667zM810.667 490.667c0-192.853-127.147-370.773-298.667-423.68-171.52 52.907-298.667 230.827-298.667 423.68v200.533l298.667 132.693 298.667-132.693v-200.533zM316.16 465.493l-60.16-60.16 170.667-170.667 341.333 341.333-60.16 60.587-281.173-281.173-110.507 110.080z" />
<glyph unicode="&#xe977;" glyph-name="verified" d="M981.333 448.427l-104.107 119.040 14.507 157.44-154.027 34.987-80.64 136.107-145.067-62.293-145.067 62.293-80.64-136.107-154.027-34.56 14.507-157.867-104.107-119.040 104.107-119.040-14.507-157.867 154.027-34.987 80.64-136.533 145.067 62.72 145.067-62.293 80.64 136.107 154.027 34.987-14.507 157.44 104.107 119.467zM812.8 385.28l-23.893-27.733 3.413-36.267 7.68-83.2-116.907-26.453-18.773-31.573-42.24-71.68-75.947 32.853-34.133 14.507-33.707-14.507-75.947-32.853-42.24 71.253-18.773 31.573-116.907 26.453 7.68 83.627 3.413 36.267-23.893 27.733-55.040 62.72 55.040 63.147 23.893 27.733-3.84 36.693-7.68 82.773 116.907 26.453 18.773 31.573 42.24 71.68 75.947-32.853 34.133-14.507 33.707 14.507 75.947 32.853 42.24-71.68 18.773-31.573 116.907-26.453-7.68-83.2-3.413-36.267 23.893-27.733 55.040-62.72-54.613-63.147zM430.507 373.333l-98.985 99.413-63.147-63.573 162.132-162.56 313.173 314.027-63.147 63.573-250.027-250.88z" />
<glyph unicode="&#xe978;" glyph-name="visibility_off" d="M512 704c161.707 0 305.92-90.88 376.32-234.667-25.173-52.053-60.587-96.853-102.827-133.12l60.16-60.16c59.307 52.48 106.24 118.187 135.68 193.28-73.813 187.307-256 320-469.333 320-54.187 0-106.24-8.533-155.307-24.32l70.4-70.4c27.733 5.547 55.893 9.387 84.907 9.387zM466.347 655.36l88.32-88.32c24.32-10.667 43.947-30.293 54.613-54.613l88.32-88.32c3.413 14.507 5.973 29.867 5.973 45.653 0.427 105.813-85.76 191.573-191.573 191.573-15.787 0-30.72-2.133-45.653-5.973zM85.76 794.88l114.347-114.347c-69.547-54.613-124.587-127.147-157.44-211.2 73.813-187.307 256-320 469.333-320 64.853 0 127.147 12.373 184.32 34.987l145.92-145.92 60.16 60.16-756.48 756.907-60.16-60.587zM405.76 474.88l111.36-111.36c-1.707-0.427-3.413-0.853-5.12-0.853-58.88 0-106.667 47.787-106.667 106.667 0 2.133 0.427 3.413 0.427 5.547v0zM260.693 619.947l74.667-74.667c-9.813-23.467-15.36-49.067-15.36-75.947 0-105.813 86.187-192 192-192 26.88 0 52.48 5.547 75.52 15.36l41.813-41.813c-37.547-10.24-76.8-16.213-117.333-16.213-161.707 0-305.92 90.88-376.32 234.667 29.867 61.013 73.387 111.36 125.013 150.613z" />
<glyph unicode="&#xe979;" glyph-name="wb_incandescent" d="M151.467 145.493l60.16-60.16 76.373 76.8-60.16 60.16-76.373-76.8zM469.333 106.667h85.333v-128h-85.333v128zM42.667 490.667h128v-85.333h-128v85.333zM554.667 787.2v-168.96l42.667-24.747c52.907-30.72 85.333-87.040 85.333-147.627 0-94.293-76.373-170.667-170.667-170.667s-170.667 76.373-170.667 170.667c0 60.587 32.853 116.907 85.333 147.627l42.667 24.747v168.96h85.333zM640 872.533h-256v-205.227c-76.373-44.373-128-126.72-128-221.44 0-141.227 114.773-256 256-256s256 114.773 256 256c0 94.72-51.627 177.067-128 221.44v205.227zM853.333 490.667h128v-85.333h-128v85.333zM735.573 161.707l76.373-76.8 60.16 60.16-76.8 76.373-59.733-59.733z" />
</font>
</defs>
</svg>
